Рейтинг
+4.86

OST, VGM & Doujin Music - Lossless

17 читателей, 65 топиков

Machikado-Mapoze (街角麻婆豆) - 33 релиза [FLAC]




  • Жанр: Instrumental, Neoclassical
  • Общая продолжительность: 22H:29M:37S
  • Официальный сайт: mapoze.com
  • >Сёркл, в основном, исполняет аранжировки на классических инструментах, таких как флейты, скрипки, фортепиано, иногда саксофон, иногда виолончель или кларнет. Также иногда встречается электронная музыка, совмещённая с инструментами, например, в альбоме ふえ☆てく. Иногда внезапно могут попасться композиции с вокалом. Сёркл также выпускает и продаёт артбуки, информация о них есть на оф. сайте. Ещё и неофициальное аниме выпускает, смотреть там же.

Читать дальше →

HARD GU.W-C.I - ILLfen Lied [2009.12.31][FLAC]




Дата релиза: 2009.12.31 (C79)
Номер по каталогу: HLPP-013
Формат: tracks+log+scans
Кодек: FLAC
DL: SFSleaks

Треклист

01. Relieved // 5:24
Music ByGray
02. Sounds You Call (35) // 5:28
Music ByBane

О его наиэсэфэйшэство, превосходительство HARD GU.W-C.I он же Nijigen ill Shit Lyricist c релизом по Эльфийской Песне. Кто не слышал, вкратце это златохуий златопидор приниибацки крутой лирицист и рэпир дожина создавший с мусашиной ахуенный musashino clan, и кози саброка член сосавший, и канабуна, и кого только в эсэфэс тусев жопу не… целовавший.

Click ClickClick Click

Inside SFS a.k.a Guchi's home Where they love to eat the fucking Salmon Flakes

Dreamy Version

スープーメッセンジャー MOCHUS (All Time Best 1999-2012) [2013.01.13][FLAC]




Дата релиза: 2013.01.13
Номер по каталогу: TKNW-1
Формат: tracks+log
Кодек: FLAC
DL: p1 p2 p3
Аниме баллады от Хаэшкобма, он же вокалист Galafina.
Best Side
CD1 01. 廃墟の楽団 // 4:04
02. 魔法少女 // 4:58
03. 少女ハサミ // 4:42
04. Next Sweets, Hurry Hurry // 4:02
05. あなたは吊橋の底 // 5:29
06. ドント・コール・マイ・ネーム // 4:41
07. ゴーゴー鳥賊娘 // 4:28
08. 夢喰いメリー // 5:21
09. 終末、ヒロイン -Live At Sapporo Sound Crue- // 7:08
10. 空気になった少女 // 5:50
11. パンク作家と妖怪サシ // 5:02
12. ミスミソウ // 11:11
13. 淀川アンダーザブリッジ // 4:02

Продолжительность: 01:10:59

Rare Side
CD2 01. ドーピングコンソメスープー // 4:30
02. 葬列に鬼火 // 6:28
03. ヨコハマ・ミキィ・ブルース // 4:22
04. 夜桜二重奏 第壱楽章 『猫』 // 3:45
05. 夜桜二重奏 第弐楽章 『鬼』 // 4:47
06. 夜桜二重奏 第参楽章 『屍 』 // 6:16
07. Requiem For The JAWOWON' Of Nomad // 3:53
08. YAKISOBA (Cover Of MASOROCK) // 4:17
09. 天使のいない街 (Cover Of わたしのココ) // 5:11
10. これはライブですか? ーはい、 イントロドン!です -Live At Namba Art Yard- // 13:55

Продолжительность: 57:23

Спасибо 蝿足昆布 за всё.


y0c1e and 慧陽 — Everything In My Life EP [2014.04.29] [FLAC]



Дата релиза: 2014.04.2 (M3-33)
Формат: tracks+log
Кодек: FLAC
DL: ^∇^

Треклист

01. Intro // 1:35
02. Everything In My Life // 4:54
03. きっとまたどこかで // 4:38
04. Everything In My Life (Remix – Kanabun) // 4:57
05. Everything In My Life (Instrumental) // 4:53
06. きっとまたどこかで (Instrumental) // 4:37
07. Outro // 2:49

Продолжительность: 28:23

慧陽 a.k.a. Keytogetouka is sicritly one of the main SFS guys, but it's a sicrit.

Mornelius - 5 Релизов (3 FLAC, 2 MP3)



Жанр: IDM, Ambient, Hip-Hop, Electronic
Формат: tracks+log
Кодек: FLAC / MP3
Продолжительность: 01:42:37
Mornelius a.k.a Nobnelius не состоит в серклах или лэйблах, но состоит в культовой додзин сцене SFS.

Mornelius - 2012.08.12 - North Pillow E.P.

Дата выхода: 2012.08.12 (С82)
Кодек: MP3 only
DL: ^∇^
Треклист
01. Mornelius — ねむい // 6:48
02. Mornelius — あくむ //5:13
03. ツマー — よあけのうた // 4:12
Mornelius & 慧陽 ‎– 2013.04.29 - Sawaokita

Дата выхода: 2013.04.29 (M3-31)
Кодек: FLAC
DL: ^∇^
Треклист
01. Sawaokita (Instrumental) // 3:54
02. 願いを歌にのせて // 4:41
03. Sidestory // 5:22
04. 願いを歌にのせて (Remix – Kanabun) // 6:09
Nobnelius ‎– 2013.12.31 – 1999

Дата выхода: 2013.12.31 (C85)
Кодек: FLAC
DL: ^∇^
Треклист
01. Nobnelius — 朝影 // 3:23
02. Nobnelius — 約束 // 4:00
03. kame_n_crane — 冬の花火 // 4:40
04. Foilverb — Little Fragments // 4:12
Nobnelius ‎– 2014.08.13 – Hikari

Дата выхода: 2014.08.13 (C86)
Кодек: FLAC
DL: ^∇^
Треклист
01. 渚 // 3:40
02. 同じ高みへ // 4:28
03. TOE Featuring HARD GU.W-C.I // 3:44
Mornelius ‎– 2015.12.31 ‎– Check The Rakugo

Дата выхода: 2014.08.13 (C89)
Кодек: MP3 only
DL: ^∇^
Треклист
01. Silvanian Families -Engage // 2:38
02. Silvanian Families — Oom // 4:52
03. Nobnelius — Breakwater // 2:06
04. Nobnelius — Vanishing wave // 3:34
05. 大岩井とり — hello // 2:49
06. 大岩井とり — 胡桃 // 3:36
07. DJ Satori — manic-depressive illness // 3:07
08. DJ Satori — G.O.A // 5:13
09. inumoto — 暴力温泉メガネ // 1:34
10. inumoto — 乳首のアー // 4:06
11. 3x6 — Uzah Jazz // 4:34

Galafina ‎— 怒りの旋律 [2013.09.01][Flac]




Дата релиза: 2013.09.01 (Comic Treasure 22)
Номер по каталогу: TKNW-2
Формат: tracks+log
Кодек: FLAC
DL: ^∇^

Треклист

01. 光の旋律 // 5:28
02. 沒落貴族のためのてーきゅう // 4:00
03. おいでよ!妖精の森 // 2:24
04. ハミングガール // 4:29
05. Girls, Be Ambitious // 4:03

Продолжительность: 20:23

Узнал в свое время от Glariz про этот серкл (GlariZ, Galafina, yeah?), после чего подружился с его основателем, он же в соло играет под именем Soo-Poo Messeger на гитаре и поет, вдохновленный аниме и мангой. К сожалению их версию Kalafina — Magia так и не дождаться, он уехал в командировку лет на 5.

【LIVE】スープーメッセンジャー - パンク作家と妖怪サシ

Marica — Maricaddiction [2013.07.26] [Flac]



Дата релиза: 2013.07.26
Номер по каталогу: FZCD-0015
Тип рипа: tracks+cue+log
Кодек: FLAC
DL: ^∇^

Треклист
今回は商業流通で入手できるはじめてのMaricaアルバムとなりますので是非是非あなたのおうちにお迎えしてあげて下さい(>_<)

01. Sweet Desire // 4:22
02. 錆びた翼 // 5:15
03. Blue Moon // 4:26
04. Breakout // 4:43
05. アウトロウ // 3:35
06. fake love // 4:10
07. 永久の祈り // 3:37
08. 花のように // 6:11
09. 双想歌 // 5:01
10. Sweet Perfume // 4:25
11. 花葬 // 3:43
12. Miss you // 4:33
13. 花天 // 3:49
14. Close to you // 5:05
15. KEEP OUT // 3:26
16. Hegira // 4:20
17. 魔界で会いましょう // 4:19

Продолжительность: 01:14:59

Вокалистка кружка Funczion SOUNDS дебютировавшая с песней к эроге Vie~いつかの夏の日~ от FlyingShine в 2001-м.
В альбоме включены песни с разных временных периодов её деятельности, как оригинальные, так и относящиеся к различным эроге.

Information of Maricaddiction
Скачать MP3 Mega.co


Log Exact Audio Copy V1.1 from 23. June 2015

EAC extraction logfile from 6. May 2016, 13:53

Marica / Maricaddiction

Used drive: MATSHITADVD-RAM UJ8C0 Adapter: 1 ID: 0

Read mode: Secure
Utilize accurate stream: Yes
Defeat audio cache: Yes
Make use of C2 pointers: No

Read offset correction: 103
Overread into Lead-In and Lead-Out: No
Fill up missing offset samples with silence: Yes
Delete leading and trailing silent blocks: No
Null samples used in CRC calculations: Yes
Used interface: Native Win32 interface for Win NT & 2000
Gap handling: Appended to previous track

Used output format: User Defined Encoder
Selected bitrate: 896 kBit/s
Quality: High
Add ID3 tag: No
Command line compressor: C:\Program Files (x86)\Exact Audio Copy\FLAC\FLAC.EXE
Additional command line options: -8 -V -T «ARTIST=%artist%» -T «TITLE=%title%» -T «ALBUM=%albumtitle%» -T «DATE=%year%» -T «TRACKNUMBER=%tracknr%» -T «TOTALTRACKS=%numtracks%» -T «DISCNUMBER=%cdnumber%» -T «TOTALDISCS=%totalcds%» -T «PERFORMER=%albuminterpret%» -T «COMPOSER=%composer%» -T «GENRE=%genre%» -T «ALBUMARTIST=%albumartist%» -T «ALBUM ARTIST=%albumartist%» -T «COMMENT=%comment%» %source%

TOC of the extracted CD

Track | Start | Length | Start sector | End sector
— 1 | 0:00.00 | 4:21.50 | 0 | 19624
2 | 4:21.50 | 5:14.64 | 19625 | 43238
3 | 9:36.39 | 4:26.11 | 43239 | 63199
4 | 14:02.50 | 4:42.57 | 63200 | 84406
5 | 18:45.32 | 3:35.13 | 84407 | 100544
6 | 22:20.45 | 4:09.46 | 100545 | 119265
7 | 26:30.16 | 3:36.70 | 119266 | 135535
8 | 30:07.11 | 6:11.16 | 135536 | 163376
9 | 36:18.27 | 5:00.61 | 163377 | 185937
10 | 41:19.13 | 4:24.43 | 185938 | 205780
11 | 45:43.56 | 3:43.16 | 205781 | 222521
12 | 49:26.72 | 4:33.06 | 222522 | 243002
13 | 54:00.03 | 3:49.10 | 243003 | 260187
14 | 57:49.13 | 5:05.04 | 260188 | 283066
15 | 62:54.17 | 3:25.43 | 283067 | 298484
16 | 66:19.60 | 4:20.09 | 298485 | 317993
17 | 70:39.69 | 4:19.28 | 317994 | 337446

Track 1

Filename C:\Unknown Rips\01. Sweet Desire.wav

Pre-gap length 0:00:02.00

Peak level 98.4 %
Extraction speed 1.6 X
Track quality 100.0 %
Test CRC AD5905A4
Copy CRC AD5905A4
Accurately ripped (confidence 4) [4236426B] (AR v2)
Copy OK

Track 2

Filename C:\Unknown Rips\02. 錆びた翼.wav

Peak level 98.4 %
Extraction speed 1.8 X
Track quality 100.0 %
Test CRC 5FE5AE68
Copy CRC 5FE5AE68
Accurately ripped (confidence 4) [996383CA] (AR v2)
Copy OK

Track 3

Filename C:\Unknown Rips\03. Blue Moon.wav

Peak level 98.4 %
Extraction speed 1.9 X
Track quality 100.0 %
Test CRC 0AD51B20
Copy CRC 0AD51B20
Accurately ripped (confidence 4) [0748D0D3] (AR v2)
Copy OK

Track 4

Filename C:\Unknown Rips\04. Breakout.wav

Peak level 98.4 %
Extraction speed 2.0 X
Track quality 100.0 %
Test CRC A01608DD
Copy CRC A01608DD
Accurately ripped (confidence 4) [35A12E6B] (AR v2)
Copy OK

Track 5

Filename C:\Unknown Rips\05. アウトロウ.wav

Peak level 98.4 %
Extraction speed 2.1 X
Track quality 100.0 %
Test CRC 95FFAA1A
Copy CRC 95FFAA1A
Accurately ripped (confidence 4) [7EC1F9A8] (AR v2)
Copy OK

Track 6

Filename C:\Unknown Rips\06. fake love.wav

Peak level 98.4 %
Extraction speed 2.2 X
Track quality 100.0 %
Test CRC 413A7C15
Copy CRC 413A7C15
Accurately ripped (confidence 4) [1640F9D5] (AR v2)
Copy OK

Track 7

Filename C:\Unknown Rips\07. 永久の祈り.wav

Peak level 98.4 %
Extraction speed 2.3 X
Track quality 100.0 %
Test CRC 5F3AA798
Copy CRC 5F3AA798
Accurately ripped (confidence 4) [0323C62C] (AR v2)
Copy OK

Track 8

Filename C:\Unknown Rips\08. 花のように.wav

Peak level 98.4 %
Extraction speed 2.3 X
Track quality 99.9 %
Test CRC 60D5E9CB
Copy CRC 60D5E9CB
Accurately ripped (confidence 4) [C7147826] (AR v2)
Copy OK

Track 9

Filename C:\Unknown Rips\09. 双想歌.wav

Peak level 98.4 %
Extraction speed 2.6 X
Track quality 100.0 %
Test CRC 8963DF3F
Copy CRC 8963DF3F
Accurately ripped (confidence 4) [56B5A940] (AR v2)
Copy OK

Track 10

Filename C:\Unknown Rips\10. Sweet Perfume.wav

Peak level 98.4 %
Extraction speed 2.4 X
Track quality 99.9 %
Test CRC DFF42E01
Copy CRC DFF42E01
Accurately ripped (confidence 4) [DE4A5B20] (AR v2)
Copy OK

Track 11

Filename C:\Unknown Rips\11. 花葬.wav

Peak level 92.7 %
Extraction speed 2.7 X
Track quality 100.0 %
Test CRC DD4492AB
Copy CRC DD4492AB
Accurately ripped (confidence 4) [3B240EC9] (AR v2)
Copy OK

Track 12

Filename C:\Unknown Rips\12. Miss you.wav

Peak level 98.4 %
Extraction speed 2.9 X
Track quality 100.0 %
Test CRC 890A959B
Copy CRC 890A959B
Accurately ripped (confidence 4) [C05B61C3] (AR v2)
Copy OK

Track 13

Filename C:\Unknown Rips\13. 花天.wav

Peak level 97.8 %
Extraction speed 2.9 X
Track quality 100.0 %
Test CRC 7CFB89DD
Copy CRC 7CFB89DD
Accurately ripped (confidence 4) [5AAB34C8] (AR v2)
Copy OK

Track 14

Filename C:\Unknown Rips\14. Close to you.wav

Peak level 98.4 %
Extraction speed 3.1 X
Track quality 100.0 %
Test CRC A7A68B68
Copy CRC A7A68B68
Accurately ripped (confidence 4) [C2A37FA4] (AR v2)
Copy OK

Track 15

Filename C:\Unknown Rips\15. KEEP OUT.wav

Peak level 85.4 %
Extraction speed 3.0 X
Track quality 100.0 %
Test CRC 71992293
Copy CRC 71992293
Accurately ripped (confidence 4) [B1D7F879] (AR v2)
Copy OK

Track 16

Filename C:\Unknown Rips\16. Hegira.wav

Peak level 98.4 %
Extraction speed 3.2 X
Track quality 100.0 %
Test CRC 52FD260D
Copy CRC 52FD260D
Accurately ripped (confidence 4) [0FDC29B1] (AR v2)
Copy OK

Track 17

Filename C:\Unknown Rips\17. 魔界で会いましょう.wav

Peak level 98.4 %
Extraction speed 3.2 X
Track quality 100.0 %
Test CRC B12ADFF4
Copy CRC B12ADFF4
Accurately ripped (confidence 4) [B1173CDA] (AR v2)
Copy OK

All tracks accurately ripped

No errors occurred

End of status report

— CUETools DB Plugin V2.1.6

[CTDB TOCID: xCGd_5R98AtULaM76L8ewfx90Z8-] found
Submit result: xCGd_5R98AtULaM76L8ewfx90Z8- has been confirmed
Track | CTDB Status
1 | (7/7) Accurately ripped
2 | (7/7) Accurately ripped
3 | (7/7) Accurately ripped
4 | (7/7) Accurately ripped
5 | (7/7) Accurately ripped
6 | (7/7) Accurately ripped
7 | (7/7) Accurately ripped
8 | (7/7) Accurately ripped
9 | (7/7) Accurately ripped
10 | (7/7) Accurately ripped
11 | (7/7) Accurately ripped
12 | (7/7) Accurately ripped
13 | (7/7) Accurately ripped
14 | (7/7) Accurately ripped
15 | (7/7) Accurately ripped
16 | (7/7) Accurately ripped
17 | (7/7) Accurately ripped

==== Log checksum 3354D84DE73E96F85FB0A00D37ECC61A6CF7016AC50601529B23FB749EA83644 ====

Magia Cult - ''Business Card From An Unemployee'' Beat Tape [2015] [Flac]



Дата релиза: 2015
Жанр: Instrumental Hip-Hop
Тип рипа: tracks
Кодек: FLAC
DL: ^∇^

This mixtape is not for sale.

Треклист

01. Relentless Vector
02. The Deceptive Garden
03. Old Home
04. Bring Back Memories
05. Return Of Byakuren
06. Real Mitakihara
07. Akihabara State of Mind

Общая продолжительность: 29:37

Soundcloud
Twitter

Log Exact Audio Copy V1.1 from 23. June 2015

EAC extraction logfile from 5. May 2016, 22:18

Magia Cult / ''Business Card From An Unemployee'' Beat Tape

Used drive: MATSHITADVD-RAM UJ8C0 Adapter: 1 ID: 0

Read mode: Secure
Utilize accurate stream: Yes
Defeat audio cache: Yes
Make use of C2 pointers: No

Read offset correction: 103
Overread into Lead-In and Lead-Out: No
Fill up missing offset samples with silence: Yes
Delete leading and trailing silent blocks: No
Null samples used in CRC calculations: Yes
Used interface: Native Win32 interface for Win NT & 2000
Gap handling: Appended to previous track

Used output format: User Defined Encoder
Selected bitrate: 896 kBit/s
Quality: High
Add ID3 tag: No
Command line compressor: C:\Program Files (x86)\Exact Audio Copy\FLAC\FLAC.EXE
Additional command line options: -8 -V -T «ARTIST=%artist%» -T «TITLE=%title%» -T «ALBUM=%albumtitle%» -T «DATE=%year%» -T «TRACKNUMBER=%tracknr%» -T «TOTALTRACKS=%numtracks%» -T «DISCNUMBER=%cdnumber%» -T «TOTALDISCS=%totalcds%» -T «PERFORMER=%albuminterpret%» -T «COMPOSER=%composer%» -T «GENRE=%genre%» -T «ALBUMARTIST=%albumartist%» -T «ALBUM ARTIST=%albumartist%» -T «COMMENT=%comment%» %source%

TOC of the extracted CD

Track | Start | Length | Start sector | End sector
— 1 | 0:02.00 | 4:13.71 | 150 | 19195
2 | 4:15.71 | 4:04.64 | 19196 | 37559
3 | 8:20.60 | 4:43.13 | 37560 | 58797
4 | 13:03.73 | 5:12.71 | 58798 | 82268
5 | 18:16.69 | 3:13.67 | 82269 | 96810
6 | 21:30.61 | 2:55.02 | 96811 | 109937
7 | 24:25.63 | 5:13.51 | 109938 | 133463

Track 1

Filename C:\Unknown Rips\01. Relentless Vector.wav

Pre-gap length 0:00:04.00

Peak level 98.8 %
Extraction speed 1.9 X
Track quality 99.9 %
Test CRC F7AA4F3A
Copy CRC F7AA4F3A
Accurately ripped (confidence 1) [DAC778E9] (AR v2)
Copy OK

Track 2

Filename C:\Unknown Rips\02. The Deceptive Garden.wav

Pre-gap length 0:00:02.00

Peak level 100.0 %
Extraction speed 2.8 X
Track quality 100.0 %
Test CRC 5755B641
Copy CRC 5755B641
Accurately ripped (confidence 1) [BC15DF0F] (AR v2)
Copy OK

Track 3

Filename C:\Unknown Rips\03. Old Home.wav

Pre-gap length 0:00:02.00

Peak level 99.8 %
Extraction speed 2.4 X
Track quality 99.9 %
Test CRC 383A6B74
Copy CRC 383A6B74
Accurately ripped (confidence 1) [D0245C67] (AR v2)
Copy OK

Track 4

Filename C:\Unknown Rips\04. Bring Back Memories.wav

Pre-gap length 0:00:02.00

Peak level 100.0 %
Extraction speed 3.3 X
Track quality 100.0 %
Test CRC 3A2AFD4C
Copy CRC 3A2AFD4C
Accurately ripped (confidence 1) [BF2B6A4A] (AR v2)
Copy OK

Track 5

Filename C:\Unknown Rips\05. Return Of Byakuren.wav

Pre-gap length 0:00:02.00

Peak level 100.0 %
Extraction speed 2.3 X
Track quality 99.9 %
Test CRC E133D9F7
Copy CRC E133D9F7
Accurately ripped (confidence 1) [21CEA533] (AR v2)
Copy OK

Track 6

Filename C:\Unknown Rips\06. Real Mitakihara.wav

Pre-gap length 0:00:02.00

Peak level 98.8 %
Extraction speed 3.3 X
Track quality 100.0 %
Test CRC 4301E46B
Copy CRC 4301E46B
Accurately ripped (confidence 1) [CE812C59] (AR v2)
Copy OK

Track 7

Filename C:\Unknown Rips\07. Akihabara State of Mind.wav

Pre-gap length 0:00:02.00

Peak level 98.8 %
Extraction speed 3.8 X
Track quality 100.0 %
Test CRC DEFF7F78
Copy CRC DEFF7F78
Accurately ripped (confidence 1) [4F6CD5EE] (AR v2)
Copy OK

All tracks accurately ripped

No errors occurred

End of status report

— CUETools DB Plugin V2.1.6

[CTDB TOCID: omJk5RkeNfhFlvVIvQo4KxifaSE-] disk not present in database
Submit result: omJk5RkeNfhFlvVIvQo4KxifaSE- has been uploaded

==== Log checksum B54CBFADEA4E10F079AABCDEDB78AC3CA99565CDDFA113D65E4DF15DAA63DEF5 ====

Anokthus - 3 Релиза [Flac]



  • Исполнитель: Anokthus
  • Лэйбл: FALLONDEAFEARS
  • Жанр: Industrial, Techno, Hardcore, Noise, Dubstep, Drum & Bass
  • Формат: Флак треки нарезанные с wav+cue
  • Продолжительность: 01:36:10
  • Официальный Сайт: fallondeafears.net
  • Краткое описание: Один из немногих в додзин сцене продюсер, выпускающий тяжелую смесь индастриала и нойза.
Читать дальше →

Dai ni Seitokai Shitsu (第二生徒会室) - MAHO METAL -LEGEND OF DEATH- (C84) 2013 (Flac)



Dai ni Seitokai Shitsu (第二生徒会室) — MAHO METAL -LEGEND OF DEATH- 2013
Дата релиза: 2013.08.15 (C83)
Жанр: Denpa, Power Metal
Формат: Flac
Сканы: обложка
Продолжительность: 0:15:60
Читать дальше →