Рейтинг
+4.86

OST, VGM & Doujin Music - Lossless

24 читателя, 76 топиков

music @ s e r i a l e x p e r i m e n t s L a i n _




[ Go visible ] →

SWING HOLIC - 19 релизов [flac]




  • Годы выпуска: 2008-2016
  • Жанр: Touhou, Instrumental, Jazz, Vocal
  • Продолжительность: 14H:56M:06S
  • Официальный сайт: sound-holic.com | ameblo.jp/soundholic
Читать дальше →

暁Records - 19 релизов [flac]




  • Годы выпуска: 2012-2017
  • Кодек: FLAC
  • Жанр: Touhou, Rock, Pop, Vocal
  • Продолжительность: 10H:50M:19S
  • Официальный сайт: akatsuki-records.com
Читать дальше →

Yumenikki Sound Track ~Yume no Oto~



Дата выхода: Aug 31, 2014
Композитор: kikiyama
Кодек: FLAC
Тип рипа: tracks
Продолжительность: 01H:46M:12S
VGMdb: GLIV-0002

Треклист:
Диск 1 01. ゆめのはじまり (1:03)
02. ゆめにっき (1:02)
03. ファミリィゲームであそぶ? (1:02)
04. NASU (0:38)
05. カリンバ (1:02)
06. ゆめはいつもベランダから (1:03)
07. さむくてあったかい、ふゆ~雪の世界~ (1:02)
08. どこかへつづくもり~森の世界~ (1:11)
09. 1,2,あ~数字の世界~ (1:02)
10. そこなしやみ~暗闇の世界~ (1:03)
11. ちかちか、うねうね~ネオンの世界~ (1:02)
12. かおがいっぱい~目玉の世界~ (1:02)
13. かべにみられてる…~壁画の世界~ (1:03)
14. しかくい めいろ~ブロックの世界~ (1:02)
15. こびとさんでておいで~ろうそくの世界~ (1:02)
16. これなあに~らくがきの世界~ (1:02)
17. なにをまもっているの?~盾民族の世界~ (1:02)
18. みずにうかぶ つき~水たまりの世界~ (1:02)
19. きらきらわるつ (1:02)
20. ゆめのくに? (1:02)
21. やさしいこだとおもってた~ポニ子~ (1:09)
22. ひなたぼっこ (2:58)
23. なぞのちかつうろ (1:03)
24. とりはそと、おにはうち (1:02)
25. B.O.S.S (1:02)
26. うすぐらいみどり、あざやかなあか (1:02)
27. こだいのいせき (1:02)
28. わすれられたほこら (1:06)
29. いかる ひのやま (1:02)
30. どうくつ~しらべるまえはセーブして~ (1:03)
31. バラック集落 (1:03)
32. とくん、とくん。 (1:02)
33. ぜんまい荒野 (1:03)
34. FEVER (1:03)
35. たのしそうなピクニック (1:03)
36. うえへ、うえへ (0:57)
37. 空中庭園 (1:03)
38. つめたい いしの かべ (1:02)
39. まじょの すむ しま (1:03)
40. あしあと いっぱい (1:03)
41. あしもとひかる さかのうえ (1:03)
42. それで、どっちからきたっけ (1:02)
43. モノ子 (1:03)
44. くろいデパート (1:03)
45. ☆メニュータイプチェンジ☆ (1:03)
46. なつかしいうた (1:03)
47. このまま、どこまでも~ほうき飛行~ (1:02)
48. じめじめしてるところ (0:59)
49. ものおきの奥、ちゃいろいの (1:03)
50. うちゅうせん (1:04)
51. 火星 (1:03)
52. きえない きずあと (1:03)
53. ないとめあ (1:02)
54. 見たくない、見たくない (1:03)
55. 「   」 (1:08)
Диск 2 01. ゆめにっき (3:47)
02. ゆきとそら (6:58)
03. オドル・オドル (4:39)
04. JUNGLE (3:23)
05. ぜんまいのきおく (5:32)
06. てんきは 晴れ (3:57)
07. NASU-BEAT-REMIX~なすびーとりみっくす~ (3:50)
08. うちゅうのきおく (5:42)
09. やさしいこだとおもってた (4:05)
10. ゆめ また ゆめ (2:15)
11. エレジー ~good night~ (3:02)

«Дискография» Masumi Itō [flac]




Читать дальше →

Qunka! / Marimo Bandou (CV: Kana Hanazawa)



Catalog No.: ESER-020
Release Date: May 27, 2015
Published by: EARTH STAR RECORDS
Media Format: FLAC (*.flac)
File Size: 110 MB
VGMdb
Tracklist 01 Qunka! 4:25
02 Qunka! (Holy Pantsu Remix) 4:46
03 Qunka! (Instrumental) 4:23

Notes: TV Anime “Teekyu 5” Opening Theme

Sound CYCLONE - Re:BRiLLiANCE



Год выхода: 2012 (C82)
Жанр: Various
Кодек: FLAC
Тип рипа: tracks*+cue
Продолжительность: 00H:48M:30S
Официальная страница релиза: Re:BRiLLiANCE
VGMdb: SDCY-0013

Треклист:
  • 01. witch — Pursuing My True Self -Average Yellow Mix- (4:18)
  • 02. D.watt — Poem for Everyone's Souls -OTAKU-ELITE Sincerely Covered-
  • 03. witch — Heartbeat, Heartbreak -Party Night mix- (4:11)
  • 04. witch — Signs of Love -«Alright» MIX- (5:02)
  • 05. ShavaDava — Time to Make History -Shava Rock Mix- (3:07)
  • 06. witch — Reach Out To The Truth -Summer Beach Mix- (4:19)
  • 07. witch — Heaven -sweet sugar mix- (5:11)
  • 08. witch — Quadruple Persona (3:35)
  • 09. sou — Never more -«Callin' Summer» MIX- (5:20)
Bonus track:
  • witch — Memories of You -feel the breeze mix- (7:02)

*Нажмите для просмотра содержимого Оригинальный рип разбит на треки при помощи CUETools
Лог извлечения отсутствует

Magia Cult - ''Business Card From An Unemployee'' Beat Tape [2015] [Flac]



Дата релиза: 2015
Жанр: Instrumental Hip-Hop
Тип рипа: tracks
Кодек: FLAC
DL: ^∇^

This mixtape is not for sale.

Треклист

01. Relentless Vector
02. The Deceptive Garden
03. Old Home
04. Bring Back Memories
05. Return Of Byakuren
06. Real Mitakihara
07. Akihabara State of Mind

Общая продолжительность: 29:37

Soundcloud
Twitter

Log Exact Audio Copy V1.1 from 23. June 2015

EAC extraction logfile from 5. May 2016, 22:18

Magia Cult / ''Business Card From An Unemployee'' Beat Tape

Used drive: MATSHITADVD-RAM UJ8C0 Adapter: 1 ID: 0

Read mode: Secure
Utilize accurate stream: Yes
Defeat audio cache: Yes
Make use of C2 pointers: No

Read offset correction: 103
Overread into Lead-In and Lead-Out: No
Fill up missing offset samples with silence: Yes
Delete leading and trailing silent blocks: No
Null samples used in CRC calculations: Yes
Used interface: Native Win32 interface for Win NT & 2000
Gap handling: Appended to previous track

Used output format: User Defined Encoder
Selected bitrate: 896 kBit/s
Quality: High
Add ID3 tag: No
Command line compressor: C:\Program Files (x86)\Exact Audio Copy\FLAC\FLAC.EXE
Additional command line options: -8 -V -T «ARTIST=%artist%» -T «TITLE=%title%» -T «ALBUM=%albumtitle%» -T «DATE=%year%» -T «TRACKNUMBER=%tracknr%» -T «TOTALTRACKS=%numtracks%» -T «DISCNUMBER=%cdnumber%» -T «TOTALDISCS=%totalcds%» -T «PERFORMER=%albuminterpret%» -T «COMPOSER=%composer%» -T «GENRE=%genre%» -T «ALBUMARTIST=%albumartist%» -T «ALBUM ARTIST=%albumartist%» -T «COMMENT=%comment%» %source%

TOC of the extracted CD

Track | Start | Length | Start sector | End sector
— 1 | 0:02.00 | 4:13.71 | 150 | 19195
2 | 4:15.71 | 4:04.64 | 19196 | 37559
3 | 8:20.60 | 4:43.13 | 37560 | 58797
4 | 13:03.73 | 5:12.71 | 58798 | 82268
5 | 18:16.69 | 3:13.67 | 82269 | 96810
6 | 21:30.61 | 2:55.02 | 96811 | 109937
7 | 24:25.63 | 5:13.51 | 109938 | 133463

Track 1

Filename C:\Unknown Rips\01. Relentless Vector.wav

Pre-gap length 0:00:04.00

Peak level 98.8 %
Extraction speed 1.9 X
Track quality 99.9 %
Test CRC F7AA4F3A
Copy CRC F7AA4F3A
Accurately ripped (confidence 1) [DAC778E9] (AR v2)
Copy OK

Track 2

Filename C:\Unknown Rips\02. The Deceptive Garden.wav

Pre-gap length 0:00:02.00

Peak level 100.0 %
Extraction speed 2.8 X
Track quality 100.0 %
Test CRC 5755B641
Copy CRC 5755B641
Accurately ripped (confidence 1) [BC15DF0F] (AR v2)
Copy OK

Track 3

Filename C:\Unknown Rips\03. Old Home.wav

Pre-gap length 0:00:02.00

Peak level 99.8 %
Extraction speed 2.4 X
Track quality 99.9 %
Test CRC 383A6B74
Copy CRC 383A6B74
Accurately ripped (confidence 1) [D0245C67] (AR v2)
Copy OK

Track 4

Filename C:\Unknown Rips\04. Bring Back Memories.wav

Pre-gap length 0:00:02.00

Peak level 100.0 %
Extraction speed 3.3 X
Track quality 100.0 %
Test CRC 3A2AFD4C
Copy CRC 3A2AFD4C
Accurately ripped (confidence 1) [BF2B6A4A] (AR v2)
Copy OK

Track 5

Filename C:\Unknown Rips\05. Return Of Byakuren.wav

Pre-gap length 0:00:02.00

Peak level 100.0 %
Extraction speed 2.3 X
Track quality 99.9 %
Test CRC E133D9F7
Copy CRC E133D9F7
Accurately ripped (confidence 1) [21CEA533] (AR v2)
Copy OK

Track 6

Filename C:\Unknown Rips\06. Real Mitakihara.wav

Pre-gap length 0:00:02.00

Peak level 98.8 %
Extraction speed 3.3 X
Track quality 100.0 %
Test CRC 4301E46B
Copy CRC 4301E46B
Accurately ripped (confidence 1) [CE812C59] (AR v2)
Copy OK

Track 7

Filename C:\Unknown Rips\07. Akihabara State of Mind.wav

Pre-gap length 0:00:02.00

Peak level 98.8 %
Extraction speed 3.8 X
Track quality 100.0 %
Test CRC DEFF7F78
Copy CRC DEFF7F78
Accurately ripped (confidence 1) [4F6CD5EE] (AR v2)
Copy OK

All tracks accurately ripped

No errors occurred

End of status report

— CUETools DB Plugin V2.1.6

[CTDB TOCID: omJk5RkeNfhFlvVIvQo4KxifaSE-] disk not present in database
Submit result: omJk5RkeNfhFlvVIvQo4KxifaSE- has been uploaded

==== Log checksum B54CBFADEA4E10F079AABCDEDB78AC3CA99565CDDFA113D65E4DF15DAA63DEF5 ====

Ragnarok Online Music Collection [flac]




Собрание саундтреков, синглов, додзин альбомов и прочих релизов, так или иначе имеющих отношение к RO. 【.torrent▼】 Read more →

Persona 3 Original Desktop Accessory





Диск, прилагавшийся к первым копиям японской версии игры. Содержит два нигде более не издававшихся трека, а также дорожку с данными: скринсейвер, голосовые семплы персонажей и обои для рабочего стола. VGMdb
Треклист:
01. Burn My Dread -Long Version- (1:48)
02. P3_Heaven's Remix (13:34)